<?xml version="1.0" standalone="no"?>
<!DOCTYPE svg PUBLIC "-//W3C//DTD SVG 1.1//EN" "http://www.w3.org/Graphics/SVG/1.1/DTD/svg11.dtd" >
<svg xmlns="http://www.w3.org/2000/svg">
<metadata>Generated by IcoMoon</metadata>
<defs>
<font id="Genesis-Icons" horiz-adv-x="1024">
<font-face units-per-em="1024" ascent="960" descent="-64" />
<missing-glyph horiz-adv-x="1024" />
<glyph unicode="&#x20;" horiz-adv-x="512" d="" />
<glyph unicode="&#xe900;" glyph-name="add" d="M461.462 768v-269.452h-269.452v-101.071h269.452v-269.452h101.071v269.452h269.452v101.071h-269.452v269.452z" />
<glyph unicode="&#xe901;" glyph-name="arrow-down" d="M544 832.32c-17.664 0-32-14.336-32-32v-626.752l-137.344 137.344c-12.48 12.48-32.768 12.48-45.248 0s-12.48-32.768 0-45.248l192-192c0.064-0.064 0.192-0.064 0.256-0.192 2.88-2.816 6.336-5.184 10.112-6.72 7.808-3.264 16.64-3.264 24.448 0 3.904 1.6 7.424 3.968 10.368 6.912l192 192c12.48 12.48 12.48 32.768 0 45.248s-32.768 12.48-45.248 0l-137.344-137.344v626.752c0 17.664-14.336 32-32 32z" />
<glyph unicode="&#xe902;" glyph-name="arrow-left" d="M128 480.192c0-4.096 0.896-8.192 2.496-12.096 1.536-3.776 3.84-7.168 6.656-10.048 0.064-0.128 0.128-0.256 0.192-0.384l192-192c12.48-12.48 32.768-12.48 45.248 0s12.48 32.768 0 45.248l-137.344 137.408h626.752c17.664 0 32 14.336 32 32s-14.336 32-32 32h-626.752l137.344 137.344c12.48 12.48 12.48 32.768 0 45.248s-32.768 12.48-45.248 0l-192-192c-0.064-0.064-0.128-0.256-0.192-0.32-2.816-2.88-5.12-6.272-6.656-10.048-1.664-3.904-2.496-8.064-2.496-12.224v0c0-0.064 0-0.064 0-0.128z" />
<glyph unicode="&#xe903;" glyph-name="arrow-right" d="M128 480.32c0-17.664 14.336-32 32-32h626.752l-137.344-137.344c-12.48-12.48-12.48-32.768 0-45.248s32.768-12.48 45.248 0l192 192c2.944 2.944 5.312 6.464 6.912 10.368 1.536 3.904 2.432 8 2.432 12.096 0 0.064 0 0.064 0 0.128v0c0 4.16-0.832 8.32-2.496 12.224-1.6 3.904-3.968 7.424-6.912 10.368l-192 192c-12.48 12.48-32.768 12.48-45.248 0s-12.48-32.768 0-45.248l137.408-137.344h-626.752c-17.664 0-32-14.336-32-32z" />
<glyph unicode="&#xe904;" glyph-name="arrow-up" d="M544 64.32c17.664 0 32 14.336 32 32v626.752l137.344-137.344c12.48-12.48 32.768-12.48 45.248 0s12.48 32.768 0 45.248l-192 192c-2.944 2.944-6.464 5.248-10.368 6.848-7.808 3.264-16.64 3.264-24.448 0-3.84-1.536-7.232-3.84-10.176-6.72-0.064-0.064-0.128-0.064-0.256-0.128l-192-192c-12.48-12.48-12.48-32.768 0-45.248s32.768-12.48 45.248 0l137.408 137.344v-626.752c0-17.664 14.336-32 32-32z" />
<glyph unicode="&#xe905;" glyph-name="bag-empty" d="M192-63.68h640c35.328 0 64 28.672 64 64v704c0 35.328-28.672 64-64 64h-128.32c-1.536 106.304-86.656 192-191.68 192s-190.144-85.696-191.68-192h-128.32c-35.328 0-64-28.672-64-64v-704c0-35.328 28.672-64 64-64zM832 704.32v-704h-640v704h640zM512 896.32c69.568 0 126.144-57.152 127.68-128h-255.36c1.536 70.848 58.112 128 127.68 128zM416 576.32h192c17.664 0 32 14.336 32 32s-14.336 32-32 32h-192c-17.664 0-32-14.336-32-32s14.336-32 32-32z" />
<glyph unicode="&#xe906;" glyph-name="bag-full" d="M192-63.68h640c35.328 0 64 28.672 64 64v704c0 35.328-28.672 64-64 64h-128.32c-1.536 106.304-86.656 192-191.68 192s-190.144-85.696-191.68-192h-128.32c-35.328 0-64-28.672-64-64v-704c0-35.328 28.672-64 64-64zM608 576.32h-192c-17.664 0-32 14.336-32 32s14.336 32 32 32h192c17.664 0 32-14.336 32-32s-14.336-32-32-32zM512 896.32c69.568 0 126.144-57.152 127.68-128h-255.36c1.536 70.848 58.112 128 127.68 128z" />
<glyph unicode="&#xe907;" glyph-name="balance" d="M56.608 512l103.392 165.44 103.392-165.44h56.608l-160 256-160-256zM256 320l64 64v64h-320v-64l64-64zM696.608 512l103.392 165.44 103.392-165.44h56.608l-160 256-160-256zM640 384l64-64h192l64 64v64h-320zM512 128v581.472c27.264 9.632 48.864 31.232 58.528 58.528h261.472v64h-261.472c-13.184 37.28-48.704 64-90.528 64s-77.344-26.72-90.528-64h-261.472v-64h261.472c9.632-27.264 31.232-48.864 58.528-58.528v-581.472h-320l-64-128h832l-64 128h-320zM433.6 800c0 25.632 20.768 46.4 46.4 46.4s46.4-20.768 46.4-46.4c0-25.632-20.768-46.4-46.4-46.4s-46.4 20.768-46.4 46.4z" />
<glyph unicode="&#xe908;" glyph-name="calendar" d="M0 0c0-35.36 28.64-64 64-64h896c35.36 0 64 28.64 64 64v576h-1024v-576zM704 512h256v-128h-256v128zM704 320h256v-128h-256v128zM704 128h256v-128h-256v128zM384 512h256v-128h-256v128zM384 320h256v-128h-256v128zM384 128h256v-128h-256v128zM64 512h256v-128h-256v128zM64 320h256v-128h-256v128zM64 128h256v-128h-256v128zM960 832h-128v91.424c0 20.192-14.336 36.576-32 36.576s-32-16.384-32-36.576v-91.424h-512v91.424c0 20.192-14.336 36.576-32 36.576s-32-16.384-32-36.576v-91.424h-128c-35.36 0-64-28.64-64-64v-128h1024v128c0 35.36-28.64 64-64 64zM224 672c-35.36 0-64 28.64-64 64 0 23.68 12.864 44.352 32 55.424v-55.424c0-17.664 14.336-32 32-32s32 14.336 32 32v55.424c19.136-11.072 32-31.744 32-55.424 0-35.36-28.64-64-64-64zM800 672c-35.36 0-64 28.64-64 64 0 23.68 12.864 44.352 32 55.424v-55.424c0-17.664 14.336-32 32-32s32 14.336 32 32v55.424c19.136-11.072 32-31.744 32-55.424 0-35.36-28.64-64-64-64z" />
<glyph unicode="&#xe909;" glyph-name="shipping" horiz-adv-x="1382" d="M875.924 956.762l-467.022-216.794c-9.519-4.3-16.023-13.711-16.023-24.64 0-0.031 0-0.062 0-0.093v0.005-535.488c0-0.051-0.001-0.11-0.001-0.17 0-10.907 6.509-20.295 15.854-24.49l0.17-0.068 467.064-216.836c3.455-1.376 7.459-2.174 11.649-2.174s8.194 0.798 11.868 2.25l-0.219-0.076 467.106 216.794c9.519 4.3 16.023 13.711 16.023 24.64 0 0.031 0 0.062 0 0.093v-0.005 535.32c0 0.051 0.001 0.11 0.001 0.17 0 10.907-6.509 20.295-15.854 24.49l-0.17 0.068-467.106 217.004c-3.317 2.059-7.34 3.279-11.649 3.279s-8.333-1.22-11.745-3.334l0.096 0.055zM1287.77 715.029l-400.154-186.22-104.759 48.027 180.416 82.933c9.53 4.334 16.037 13.771 16.037 24.728s-6.507 20.395-15.868 24.659l-0.17 0.069-129.488 64.008c-3.551 2.067-7.815 3.287-12.364 3.287s-8.814-1.22-12.483-3.351l0.119 0.064-226.929-104.465-94.708 46.261 400.154 186.262zM615.519 623.559l206.617 96.012 65.48-32.004-181.888-84.405c-9.519-4.3-16.023-13.711-16.023-24.64 0-0.031 0-0.062 0-0.093v0.005-222.64l-74.227 36.378zM448.181 671.544l112.035-52.401v-244.424c0-0.051-0.001-0.11-0.001-0.17 0-10.907 6.509-20.295 15.854-24.49l0.17-0.068 129.488-63.924c3.396-1.401 7.337-2.424 11.449-2.884l0.201-0.018c0.22-0.007 0.479-0.011 0.74-0.011 5.152 0 9.937 1.576 13.897 4.272l-0.086-0.055c7.878 4.606 13.087 13.024 13.087 22.658 0 0.225-0.003 0.45-0.008 0.673l0.001-0.033v222.598l114.937-52.401v-474.382l-411.762 190.678zM915.245 6.526v474.424l411.804 190.636v-474.382zM1222.29 498.193c-3.964 2.851-8.916 4.56-14.268 4.56-4.38 0-8.493-1.145-12.056-3.151l0.123 0.064-171.711-79.905c-9.519-4.3-16.023-13.711-16.023-24.64 0-0.031 0-0.062 0-0.093v0.005-122.254c-0.027-0.43-0.042-0.932-0.042-1.438 0-9.416 5.254-17.605 12.99-21.795l0.131-0.065c4.139-2.593 9.158-4.152 14.536-4.205h0.015c4.279 0.317 8.239 1.354 11.871 2.991l-0.221-0.089 171.711 79.905c9.519 4.3 16.023 13.711 16.023 24.64 0 0.031 0 0.062 0 0.093v-0.005 122.212c-0.065 9.834-5.243 18.445-13.006 23.315l-0.116 0.068zM1178.637 370.345l-116.409-53.831v61.106l116.409 53.831zM167.337 613.34h91.68c15.26 0 27.63 12.37 27.63 27.63s-12.37 27.63-27.63 27.63v0h-91.68c-14.812-0.596-26.594-12.748-26.594-27.651s11.782-27.056 26.54-27.65l0.054-0.002zM97.484 419.844h161.576c15.26 0 27.63 12.37 27.63 27.63s-12.37 27.63-27.63 27.63v0h-161.576c-0.012 0-0.027 0-0.042 0-15.237 0-27.588-12.352-27.588-27.588 0-0.015 0-0.030 0-0.044v0.002c-0.011-0.281-0.017-0.611-0.017-0.942 0-14.749 11.956-26.705 26.705-26.705 0.331 0 0.661 0.006 0.989 0.018l-0.047-0.001zM27.63 226.306h231.303c15.26 0 27.63 12.37 27.63 27.63s-12.37 27.63-27.63 27.63v0h-231.303c-14.812-0.596-26.594-12.748-26.594-27.651s11.782-27.056 26.54-27.65l0.054-0.002z" />
<glyph unicode="&#xe90a;" glyph-name="logout" horiz-adv-x="896" d="M46.528 960h466.048c25.44-0.288 45.952-20.96 45.952-46.464 0-0.032 0-0.032 0-0.064v0-161.92c0-0.128 0-0.256 0-0.384 0-12.832-5.152-24.416-13.536-32.864v0c-8.352-8.512-19.968-13.792-32.832-13.792-0.064 0-0.128 0-0.192 0v0c-12.96 0.032-24.672 5.344-33.12 13.888v0c-8.288 8.32-13.376 19.776-13.376 32.448 0 0.032 0 0.064 0 0.096v0 115.84h-372.384v-837.792h372.384v115.328c0 0.128 0 0.256 0 0.384 0 12.832 5.152 24.416 13.536 32.864v0c8.352 8.512 19.968 13.76 32.8 13.76 0.064 0 0.128 0 0.192 0v0c12.96-0.032 24.672-5.344 33.12-13.888v0c8.224-8.32 13.312-19.776 13.312-32.416 0-0.064 0-0.16 0-0.224v0-162.432c-0.352-25.536-20.96-46.176-46.496-46.528h-465.504c-25.536 0.352-46.176 20.96-46.528 46.496v931.072c0.352 25.568 20.992 46.208 46.56 46.528h0.032zM635.264 269.504c0 0.448-0.032 0.928-0.032 1.44 0 11.040 4.256 21.056 11.2 28.576l-0.032-0.032 100.544 106.88h-403.648c-23.008 0-41.632 18.656-41.632 41.632s18.656 41.632 41.632 41.632h403.648l-100.544 106.88c-7.008 7.456-11.328 17.504-11.328 28.576 0 23.040 18.688 41.76 41.76 41.76 12 0 22.784-5.056 30.4-13.152l0.032-0.032 167.616-178.368c6.080-7.328 9.792-16.864 9.792-27.232s-3.68-19.904-9.824-27.296l0.064 0.064-168.768-179.392c-7.616-7.648-18.144-12.352-29.76-12.352 0 0 0 0-0.032 0v0c-0.032 0-0.064 0-0.096 0-10.912 0-20.864 4.256-28.224 11.168l0.032-0.032c-7.68 7.456-12.512 17.76-12.736 29.248v0.032z" />
<glyph unicode="&#xe90b;" glyph-name="cart" d="M397.741 181.090c-45.83 0-82.984-37.153-82.984-82.984s37.153-82.984 82.984-82.984c45.83 0 82.984 37.153 82.984 82.984v0c-0.062 45.806-37.178 82.922-82.978 82.984h-0.006zM763.81 181.090c-45.83 0-82.984-37.153-82.984-82.984s37.153-82.984 82.984-82.984c45.83 0 82.984 37.153 82.984 82.984v0c-0.062 45.806-37.178 82.922-82.978 82.984h-0.006zM33.404 880.769c-18.449 0-33.404-14.955-33.404-33.404s14.955-33.404 33.404-33.404v0h133.238c55.286-136.917 109.707-274.050 164.561-411.13l-50.472-121.446c-1.633-3.802-2.583-8.228-2.583-12.875 0-18.434 14.943-33.377 33.377-33.377 0.052 0 0.105 0 0.157 0h556.641c18.449 0 33.404 14.955 33.404 33.404s-14.955 33.404-33.404 33.404v0h-506.556l28.888 68.919 536.147 42.79c14.548 1.466 26.321 11.832 29.863 25.511l0.052 0.238 66.809 289.468c0.302 1.726 0.474 3.714 0.474 5.742 0 18.602-14.512 33.815-32.834 34.934l-0.098 0.005h-734.625l-36.191 90.449c-5.262 12.226-17.118 20.673-30.971 20.881h-0.026z" />
<glyph unicode="&#xe90c;" glyph-name="check" d="M441.216 141.504c1.28-1.024 2.048-2.432 3.392-3.392 1.92-1.28 4.096-1.536 6.144-2.432 2.432-1.152 4.8-2.24 7.36-2.944 2.496-0.64 4.928-0.96 7.488-1.152 3.648-0.384 7.168-0.384 10.752 0.128 1.472 0.256 2.88 0.64 4.352 1.024 4.416 1.088 8.512 2.816 12.544 5.248 0.704 0.448 1.28 0.96 1.984 1.408 2.624 1.792 5.44 3.136 7.68 5.568 1.6 1.728 2.304 3.968 3.584 5.888 0.064 0.064 0.192 0.128 0.192 0.192l381.376 611.264c13.568 20.672 7.744 48.448-12.992 62.016s-48.448 7.744-62.016-12.992l-352.256-564.544-194.816 189.504c-18.176 16.832-46.464 15.744-63.296-2.432-16.768-18.176-15.68-46.528 2.496-63.296l234.368-228.032c0.448-0.448 1.088-0.576 1.664-1.024z" />
<glyph unicode="&#xe90d;" glyph-name="chevron-down" d="M788.605 664.214l78.682-78.073-355.252-354.354-355.306 354.354 78.682 78.073 276.632-276.632z" />
<glyph unicode="&#xe90e;" glyph-name="chevron-left" d="M701.871 205.089l-68.568-69.089-311.183 311.981 311.183 312.019 68.568-69.089-242.935-242.935z" />
<glyph unicode="&#xe90f;" glyph-name="chevron-right" d="M322.129 690.911l68.568 69.089 311.183-311.981-311.183-312.019-68.568 69.089 242.935 242.935z" />
<glyph unicode="&#xe910;" glyph-name="chevron-up" d="M245.631 239.787l-75.771 75.184 342.109 341.243 342.161-341.243-75.771-75.184-266.395 266.395z" />
<glyph unicode="&#xe911;" glyph-name="credit-card" d="M960 832.32h-896c-35.328 0-64-28.672-64-64v-640c0-35.328 28.672-64 64-64h896c35.328 0 64 28.672 64 64v640c0 35.328-28.672 64-64 64zM960 128.32h-896v384h896v-384zM64 637.632v130.688h896v-130.688h-896zM160 192.32h320c17.664 0 32 14.336 32 32s-14.336 32-32 32h-320c-17.664 0-32-14.336-32-32s14.336-32 32-32zM576 224.32c0-17.664 14.336-32 32-32s32 14.336 32 32c0 17.664-14.336 32-32 32s-32-14.336-32-32zM704 224.32c0-17.664 14.336-32 32-32s32 14.336 32 32c0 17.664-14.336 32-32 32s-32-14.336-32-32zM832 224.32c0-17.664 14.336-32 32-32s32 14.336 32 32c0 17.664-14.336 32-32 32s-32-14.336-32-32z" />
<glyph unicode="&#xe912;" glyph-name="cross" d="M321.6 193.92c12.48-12.48 32.768-12.48 45.248 0l177.152 177.152 177.152-177.152c12.48-12.48 32.768-12.48 45.248 0s12.48 32.768 0 45.248l-177.152 177.152 177.152 177.152c12.48 12.48 12.48 32.768 0 45.248s-32.768 12.48-45.248 0l-177.152-177.152-177.152 177.152c-12.48 12.48-32.768 12.48-45.248 0s-12.48-32.768 0-45.248l177.152-177.152-177.152-177.152c-12.48-12.48-12.48-32.768 0-45.248z" />
<glyph unicode="&#xe913;" glyph-name="document" d="M832 896.32h-192c0 35.328-28.672 64-64 64h-128c-35.328 0-64-28.672-64-64h-192c-35.328 0-64-28.672-64-64v-832c0-35.328 28.672-64 64-64h640c35.328 0 64 28.672 64 64v832c0 35.328-28.672 64-64 64zM832 64.32h-640v768h128c0-35.328 28.672-64 64-64h256c35.328 0 64 28.672 64 64h128v-768zM256 608.32c0-17.664 14.336-32 32-32h448c17.664 0 32 14.336 32 32s-14.336 32-32 32h-448c-17.664 0-32-14.336-32-32zM736 448.32h-448c-17.664 0-32-14.336-32-32s14.336-32 32-32h448c17.664 0 32 14.336 32 32s-14.336 32-32 32zM736 256.32h-448c-17.664 0-32-14.336-32-32s14.336-32 32-32h448c17.664 0 32 14.336 32 32s-14.336 32-32 32z" />
<glyph unicode="&#xe914;" glyph-name="envelope" d="M960 832h-896c-35.2 0-64-28.8-64-64v-640c0-35.2 28.8-64 64-64h896c35.2 0 64 28.8 64 64v640c0 35.2-28.8 64-64 64zM896 704v-46.016l-384-226.272-384 226.272v46.016h768zM128 192v354.56l384-226.272 384 226.272v-354.56h-768z" />
<glyph unicode="&#xe915;" glyph-name="error" d="M742.848 941.568c-12.032 12.032-28.288 18.752-45.312 18.752h-371.072c-16.96 0-33.28-6.72-45.248-18.752l-262.4-262.464c-12.096-11.968-18.816-28.224-18.816-45.248v-371.136c0-16.96 6.72-33.28 18.752-45.248l262.4-262.464c12.032-11.968 28.288-18.688 45.312-18.688h371.136c16.96 0 33.28 6.72 45.248 18.752l262.4 262.464c12.032 11.968 18.752 28.224 18.752 45.248v371.072c0 16.96-6.72 33.28-18.752 45.248l-262.4 262.464zM960 262.784l-262.464-262.464h-371.072l-262.464 262.464v371.072l262.464 262.464h371.136l262.4-262.464v-371.072zM512 768.32c-35.328 0-64-28.672-64-64v-320c0-35.328 28.672-64 64-64s64 28.672 64 64v320c0 35.328-28.672 64-64 64zM448 192.32c0-35.36 28.64-64 64-64s64 28.64 64 64c0 35.36-28.64 64-64 64s-64-28.64-64-64z" />
<glyph unicode="&#xe916;" glyph-name="facebook" d="M385.728-63.68h191.872l0.128 512 174.272 0.064 18.688 176.448h-193.088l0.256 88.32c0 46.016 3.136 70.656 69.184 70.656h121.984v176.512h-174.912c-169.536 0-208.576-87.616-208.576-231.552l0.192-103.936-128.704-0.064v-176.448h128.704v-512z" />
<glyph unicode="&#xe917;" glyph-name="flickr" d="M0 451.84c0-117.824 95.488-213.312 213.312-213.312s213.312 95.488 213.312 213.312c0 117.824-95.488 213.312-213.312 213.312s-213.312-95.488-213.312-213.312zM597.376 451.84c0-117.824 95.488-213.312 213.312-213.312s213.312 95.488 213.312 213.312c0 117.824-95.488 213.312-213.312 213.312s-213.312-95.488-213.312-213.312z" />
<glyph unicode="&#xe918;" glyph-name="gift" d="M960 704.32h-896c-35.328 0-64-28.672-64-64v-192h64v-448c0-35.328 28.672-64 64-64h768c35.328 0 64 28.672 64 64v448h64v192c0 35.328-28.672 64-64 64zM64 640.32h384v-128h-384v128zM128 0.32v448h320v-448h-320zM896 0.32h-318.656v448h318.656v-448zM960 512.32h-382.656v128h382.656v-128zM512 768.32c0 0.128-0.064 0.384-0.064 0.512h0.192c-0.064-0.128-0.128-0.384-0.128-0.512 0 0 167.616 0 256 0s128 43.008 128 96-39.616 96-128 96c-82.752 0-147.904-37.248-192-80.448-19.328 11.456-41.664 18.432-65.856 18.432-23.168 0-44.608-6.528-63.424-17.152-44.032 42.688-108.8 79.168-190.72 79.168-88.384 0-128-43.008-128-96s39.616-96 128-96c88.384 0 256 0 256 0zM832 864.32c0-26.432-34.816-32-64-32h-145.344c-0.512 0.896-0.96 1.856-1.472 2.688 32.512 31.616 81.792 61.312 146.816 61.312 29.184 0 64-5.568 64-32zM192 864.32c0 26.432 34.816 32 64 32 63.616 0 111.872-28.48 144.384-59.008-1.024-1.6-1.792-3.328-2.752-4.992h-141.632c-29.184 0-64 5.568-64 32z" />
<glyph unicode="&#xe919;" glyph-name="globe" d="M512 928c-265.088 0-480-214.912-480-480s214.912-480 480-480 480 214.912 480 480-214.912 480-480 480zM862.016 672h-95.36c-18.56 58.368-44.032 109.504-74.752 150.528 69.632-33.6 128.576-85.888 170.112-150.528zM544 672v186.752c60.48-17.856 119.424-84.928 155.712-186.752h-155.712zM718.336 608c9.024-39.168 14.848-82.048 16.704-128h-191.040v128h174.336zM480 858.752v-186.752h-155.712c36.288 101.824 95.232 168.896 155.712 186.752zM480 608v-128h-191.040c1.856 45.952 7.68 88.832 16.704 128h174.336zM224.96 480h-127.36c3.456 44.992 13.76 88.128 30.464 128h112.64c-8.576-40.512-13.952-83.328-15.744-128zM224.96 416c1.792-44.672 7.168-87.488 15.744-128h-112.64c-16.704 39.872-27.008 83.008-30.464 128h127.36zM288.96 416h191.040v-128h-174.336c-9.024 39.168-14.848 82.048-16.704 128zM480 224v-186.752c-60.48 17.856-119.424 84.928-155.712 186.752h155.712zM544 37.248v186.752h155.712c-36.288-101.824-95.232-168.896-155.712-186.752zM544 288v128h191.040c-1.856-45.952-7.68-88.832-16.704-128h-174.336zM799.040 416h127.36c-3.456-44.992-13.76-88.128-30.464-128h-112.64c8.576 40.512 13.952 83.328 15.744 128zM799.040 480c-1.792 44.672-7.168 87.488-15.744 128h112.64c16.704-39.872 27.008-83.008 30.464-128h-127.36zM332.096 822.528c-30.656-41.024-56.192-92.16-74.752-150.528h-95.36c41.536 64.64 100.48 116.928 170.112 150.528zM161.984 224h95.36c18.56-58.368 44.032-109.504 74.752-150.528-69.632 33.6-128.576 85.888-170.112 150.528zM691.904 73.472c30.656 41.024 56.192 92.16 74.752 150.528h95.36c-41.536-64.64-100.48-116.928-170.112-150.528z" />
<glyph unicode="&#xe91a;" glyph-name="google" d="M274.304 29.056c169.6 0 263.296 96.256 263.296 193.024 0 77.568-22.912 124.096-93.696 174.144-24.192 17.152-70.528 58.816-70.528 83.328 0 28.736 8.192 42.88 51.456 76.672 44.288 34.624 75.648 83.328 75.648 139.904 0 67.392-30.016 133.12-86.4 154.752h84.928l60.032 43.328c0 0-200.96 0-267.968 0-120.064 0-233.088-91.008-233.088-196.416 0-107.712 81.856-194.688 204.096-194.688 8.512 0 16.768 0.192 24.832 0.768-7.936-15.168-13.632-32.256-13.632-50.048 0-29.952 16.128-54.208 36.48-74.048-15.36 0-30.272-0.448-46.464-0.448-148.8 0.064-263.296-94.72-263.296-192.96 0-96.768 125.568-157.312 274.304-157.312zM300.8 530.432c-69.056 2.048-134.656 77.248-146.56 167.872-11.904 90.688 34.368 160.064 103.36 158.016s134.656-74.816 146.56-165.44c11.968-90.688-34.368-162.496-103.36-160.448zM291.648 354.368c24-0.256 46.4-4.096 66.688-10.688 55.808-38.72 95.872-60.672 107.136-104.96 2.112-8.96 3.264-18.176 3.264-27.648 0-78.208-50.368-139.328-194.944-139.328-102.848 0-177.088 65.088-177.088 143.296 0 76.672 92.096 140.416 194.944 139.328zM832 704.32v189.888h-64v-189.888h-192v-64h192v-194.112h64v194.112h192v64z" />
<glyph unicode="&#xe91b;" glyph-name="heart-empty" d="M1023.488 517.632c-2.688 157.056-130.112 297.024-287.488 297.024-91.008 0-171.2-47.616-224-117.504-52.8 69.888-132.992 117.504-224 117.504-157.376 0-284.8-139.968-287.488-297.024h-0.512c0-0.96 0.192-1.856 0.192-2.816 0-0.704-0.192-1.408-0.192-2.176 0-4.416 1.088-7.744 1.28-11.968 14.080-400.256 506.688-564.352 506.688-564.352s499.84 163.904 514.624 563.712c0.256 4.48 1.408 8 1.408 12.608 0 0.768-0.192 1.472-0.192 2.176 0 1.024 0.192 1.856 0.192 2.816h-0.512zM958.656 502.4c-11.328-307.2-362.112-463.36-450.56-497.856-87.68 34.56-432.064 190.016-442.88 499.072-0.128 3.2-0.448 6.144-0.896 9.344 0.064 1.152 0.128 2.368 0.192 3.584 2.176 126.912 104.512 234.112 223.488 234.112 65.664 0 128.704-33.536 172.928-92.096 12.096-16 30.976-25.408 51.072-25.408s38.976 9.408 51.072 25.408c44.224 58.56 107.264 92.096 172.928 92.096 118.976 0 221.312-107.2 223.488-234.112 0-1.216 0.064-2.432 0.192-3.648-0.448-3.136-0.832-6.464-1.024-10.496z" />
<glyph unicode="&#xe91c;" glyph-name="heart-full" d="M1023.488 517.632c-2.688 157.056-130.112 297.024-287.488 297.024-91.008 0-171.2-47.616-224-117.504-52.8 69.888-132.992 117.504-224 117.504-157.376 0-284.8-139.968-287.488-297.024h-0.512c0-0.96 0.192-1.856 0.192-2.816 0-0.704-0.192-1.408-0.192-2.176 0-4.416 1.088-7.744 1.28-11.968 14.080-400.256 506.688-564.352 506.688-564.352s499.84 163.904 514.624 563.712c0.256 4.48 1.408 8 1.408 12.608 0 0.768-0.192 1.472-0.192 2.176 0 1.024 0.192 1.856 0.192 2.816h-0.512z" />
<glyph unicode="&#xe91d;" glyph-name="history" d="M512 704v-320h256v64h-192v256zM576 896c-247.424 0-448-200.576-448-448h-128l160-192 160 192h-128c0 212.064 171.936 384 384 384s384-171.936 384-384c0-212.064-171.936-384-384-384-21.792 0-43.168 1.856-64 5.344v-64.768c20.896-2.976 42.272-4.576 64-4.576 247.424 0 448 200.576 448 448s-200.576 448-448 448z" />
<glyph unicode="&#xe91e;" glyph-name="home" d="M52.992 392.128l459.008 397.824 459.008-397.824c6.080-5.248 13.568-7.808 20.992-7.808 8.96 0 17.856 3.776 24.192 11.008 11.584 13.376 10.112 33.536-3.2 45.184l-480 416c-12.032 10.432-29.888 10.432-41.92 0l-171.072-148.224v60.032c0 35.328-28.672 64-64 64s-64-28.672-64-64v-170.944l-180.992-156.864c-13.312-11.584-14.784-31.808-3.2-45.184 11.648-13.312 31.808-14.784 45.184-3.2zM384 256.32h256v-320h192c35.328 0 64 28.672 64 64v313.664c0 19.2-8.576 37.312-23.424 49.472l-320 262.336c-11.776 9.664-26.176 14.528-40.576 14.528s-28.8-4.864-40.576-14.528l-320-262.336c-14.848-12.096-23.424-30.272-23.424-49.472v-313.664c0-35.328 28.672-64 64-64h192v320z" />
<glyph unicode="&#xe91f;" glyph-name="info" d="M448 656c0 26.4 21.6 48 48 48h32c26.4 0 48-21.6 48-48v-32c0-26.4-21.6-48-48-48h-32c-26.4 0-48 21.6-48 48v32zM640 192h-256v64h64v192h-64v64h192v-256h64zM512 960c-282.784 0-512-229.216-512-512s229.216-512 512-512 512 229.216 512 512-229.216 512-512 512zM512 32c-229.76 0-416 186.24-416 416s186.24 416 416 416 416-186.24 416-416-186.24-416-416-416z" />
<glyph unicode="&#xe920;" glyph-name="instagram" d="M512.021 960c-139.075 0-156.513-0.598-211.134-3.077-44.879-0.928-87.465-9.579-126.862-24.673l2.575 0.867c-35.476-13.584-65.716-33.674-90.614-59.029l-0.037-0.038c-25.392-24.935-45.482-55.175-58.485-88.934l-0.581-1.716c-14.227-36.822-22.878-79.408-23.8-123.893l-0.006-0.394c-2.479-54.621-3.077-72.059-3.077-211.134s0.598-156.47 3.077-211.091c0.928-44.879 9.579-87.465 24.673-126.862l-0.867 2.575c13.58-35.492 33.671-65.747 59.029-90.657l0.037-0.036c24.937-25.376 55.177-45.452 88.934-58.443l1.717-0.581c36.822-14.226 79.407-22.878 123.892-23.8l0.395-0.006c54.621-2.479 72.059-3.077 211.091-3.077s156.47 0.598 211.091 3.077c44.88 0.928 87.465 9.58 126.862 24.673l-2.575-0.867c68.89 27.185 122.404 80.699 148.97 147.817l0.618 1.772c14.226 36.822 22.878 79.407 23.8 123.892l0.006 0.395c2.479 54.621 3.077 72.059 3.077 211.091s-0.598 156.47-3.077 211.091c-0.928 44.88-9.58 87.465-24.673 126.862l0.867-2.575c-13.579 35.492-33.67 65.748-59.029 90.657l-0.037 0.036c-24.894 25.426-55.090 45.555-88.809 58.611l-1.714 0.584c-36.809 14.222-79.379 22.873-123.848 23.799l-0.396 0.007c-54.621 2.479-72.059 3.077-211.091 3.077zM512.021 867.725c136.767 0 152.923-0.513 206.903-2.992 34.235-0.415 66.847-6.837 97.001-18.256l-1.948 0.648c23.088-8.716 42.746-21.82 58.811-38.422l0.042-0.044c16.646-16.107 29.75-35.765 38.102-57.762l0.363-1.090c10.787-28.203 17.223-60.812 17.65-94.87l0.002-0.183c2.479-53.98 2.992-70.179 2.992-206.903s-0.513-152.923-2.992-206.903c-0.428-34.241-6.865-66.85-18.3-97l0.648 1.947c-17.605-44.795-52.395-79.585-96.040-96.791l-1.15-0.399c-28.206-10.774-60.818-17.196-94.876-17.607l-0.177-0.002c-53.98-2.479-70.179-2.992-206.903-2.992s-152.923 0.513-206.903 2.992c-34.235 0.412-66.847 6.835-97.001 18.256l1.948-0.648c-23.088 8.716-42.746 21.82-58.811 38.422l-0.042 0.044c-16.647 16.106-29.751 35.764-38.102 57.763l-0.363 1.090c-10.773 28.206-17.195 60.818-17.607 94.876l-0.002 0.177c-2.479 53.98-2.992 70.179-2.992 206.903s0.513 152.923 2.992 206.903c0.413 34.235 6.835 66.847 18.256 97.001l-0.648-1.948c8.714 23.089 21.819 42.747 38.422 58.811l0.043 0.042c16.107 16.646 35.765 29.75 57.762 38.102l1.090 0.363c28.206 10.772 60.817 17.194 94.875 17.607l0.178 0.002c53.98 2.479 70.179 2.992 206.903 2.992zM512.021 277.319c-94.253 0-170.66 76.407-170.66 170.66s76.407 170.66 170.66 170.66c94.253 0 170.66-76.407 170.66-170.66v0c0-94.253-76.407-170.66-170.66-170.66v0zM512.021 710.913c-145.215 0-262.935-117.72-262.935-262.935s117.72-262.935 262.935-262.935c145.215 0 262.935 117.72 262.935 262.935v0c0 145.215-117.72 262.935-262.935 262.935v0zM846.759 721.342c0-0.013 0-0.028 0-0.043 0-33.943-27.516-61.46-61.46-61.46s-61.46 27.516-61.46 61.46c0 33.943 27.516 61.46 61.46 61.46v0c33.928 0 61.435-27.492 61.46-61.415v-0.002z" />
<glyph unicode="&#xe921;" glyph-name="location" d="M486.784 434.752c91.968 0 166.784 74.816 166.784 166.784s-74.816 166.784-166.784 166.784-166.784-74.816-166.784-166.784c0-91.968 74.816-166.784 166.784-166.784zM486.784 704.32c56.64 0 102.784-46.080 102.784-102.784s-46.080-102.784-102.784-102.784-102.784 46.144-102.784 102.784 46.080 102.784 102.784 102.784zM463.488-46.336c5.376-5.952 10.56-9.792 15.552-12.48 0.064-0.064 0.192-0.064 0.256-0.128 3.456-1.792 6.848-3.136 10.048-3.136s6.592 1.344 10.048 3.136c0.064 0.064 0.192 0.064 0.256 0.128 4.992 2.688 10.176 6.528 15.552 12.48 0 0 297.472 323.52 327.36 603.84 1.792 14.464 3.008 29.12 3.008 44.032 0 198.144-160.64 358.784-358.784 358.784s-358.784-160.64-358.784-358.784c0-15.168 1.216-29.952 3.072-44.608 30.656-280.192 332.416-603.264 332.416-603.264zM486.784 896.32c162.56 0 294.784-132.224 294.784-294.784 0-10.816-0.768-22.336-2.624-37.248-22.912-214.784-224.576-466.816-289.536-543.488-66.624 76.8-271.168 328.192-294.848 544-1.728 14.144-2.56 25.792-2.56 36.736 0 162.56 132.224 294.784 294.784 294.784z" />
<glyph unicode="&#xe922;" glyph-name="menu" d="M112 768h800v-80h-800v80zM112 488h800v-80h-800v80zM112 208h800v-80h-800v80z" />
<glyph unicode="&#xe923;" glyph-name="phone" d="M422.912 702.272c-12.224 140.608-158.912 209.6-165.12 212.416-5.824 2.752-12.352 3.584-18.624 2.496-169.344-28.096-194.816-126.656-195.84-130.752-1.408-5.76-1.152-11.712 0.64-17.28 201.984-626.688 621.76-742.848 759.744-781.056 10.624-2.944 19.392-5.312 26.048-7.488 3.2-1.088 6.528-1.536 9.856-1.536 4.544 0 9.088 0.96 13.248 2.88 4.224 1.92 103.936 48.896 128.32 202.112 1.088 6.656 0 13.568-3.072 19.584-2.176 4.224-54.336 103.488-198.976 138.56-10.112 2.624-20.48-0.064-28.288-6.72-45.632-38.976-108.672-80.512-135.872-84.8-182.336 89.152-284.16 260.224-288 292.672-2.24 18.24 39.552 82.304 87.616 134.4 6.080 6.592 9.152 15.552 8.32 24.512z" />
<glyph unicode="&#xe924;" glyph-name="pinterest" d="M257.92 368.128c49.472 87.488-15.936 106.688-26.176 170.112-41.92 259.2 299.008 436.224 477.568 255.104 123.52-125.44 42.176-511.104-156.992-471.040-190.784 38.336 93.44 345.344-58.816 405.568-123.776 49.024-189.504-149.76-130.816-248.576-34.432-169.92-108.544-329.92-78.528-542.976 97.28 70.592 130.112 205.824 156.992 346.816 48.896-29.76 75.072-60.672 137.408-65.472 229.952-17.856 358.464 229.568 326.976 457.92-27.904 202.368-229.696 305.408-444.864 281.28-170.112-19.072-339.712-156.608-346.752-353.28-4.288-120.064 29.76-210.176 144-235.456z" />
<glyph unicode="&#xe925;" glyph-name="print" d="M960 640.32h-64v256c0 35.328-28.672 64-64 64h-640c-35.328 0-64-28.672-64-64v-256h-64c-35.328 0-64-28.672-64-64v-320c0-35.328 28.672-64 64-64h64v-192c0-35.328 28.672-64 64-64h640c35.328 0 64 28.672 64 64v192h64c35.328 0 64 28.672 64 64v320c0 35.328-28.672 64-64 64zM192 320.32h640v-320h-640v320zM704 480.32c0 17.664 14.336 32 32 32s32-14.336 32-32c0-17.664-14.336-32-32-32s-32 14.336-32 32zM160 448.32c-17.664 0-32 14.336-32 32s14.336 32 32 32 32-14.336 32-32c0-17.664-14.336-32-32-32zM864 448.32c-17.664 0-32 14.336-32 32s14.336 32 32 32 32-14.336 32-32c0-17.664-14.336-32-32-32zM192 896.32h640v-256h-640v256zM768 224.32c0 17.664-14.336 32-32 32h-448c-17.664 0-32-14.336-32-32s14.336-32 32-32h448c17.664 0 32 14.336 32 32zM736 128.32h-448c-17.664 0-32-14.336-32-32s14.336-32 32-32h448c17.664 0 32 14.336 32 32s-14.336 32-32 32z" />
<glyph unicode="&#xe926;" glyph-name="protected" d="M494.4-61.184c5.76-1.664 11.712-2.496 17.6-2.496s11.84 0.832 17.6 2.496c396.096 113.152 454.4 513.536 429.952 709.504-4.032 31.936-31.296 56-63.552 56-9.152 0.704-64 10.176-64 128 0 16.96-6.72 33.28-18.752 45.248-13.824 13.824-93.248 82.752-301.248 82.752s-287.424-68.928-301.248-82.752c-12.032-11.968-18.752-28.288-18.752-45.248 0-117.824-54.848-127.296-65.856-128.064-32.256 0-57.664-24-61.696-56-24.448-195.904 33.92-596.288 429.952-709.44zM128 640.32c0 0 128 0 128 192 0 0 64 64 256 64v-448h376.896c-25.216-159.424-109.824-371.712-376.896-448v448h-376.896c-17.024 108.032-7.104 192-7.104 192z" />
<glyph unicode="&#xe927;" glyph-name="question" d="M92.8 448c0 230.4 188.8 419.2 419.2 419.2s419.2-185.6 419.2-419.2-188.8-419.2-419.2-419.2-419.2 188.8-419.2 419.2zM0 448c0-281.6 230.4-512 512-512s512 230.4 512 512-230.4 512-512 512-512-230.4-512-512zM451.2 342.4h99.2c-3.2 19.2 0 28.8 3.2 44.8 6.4 16 12.8 32 25.6 44.8 9.6 16 22.4 28.8 35.2 41.6s25.6 25.6 35.2 41.6c9.6 12.8 19.2 28.8 28.8 44.8 6.4 16 9.6 35.2 9.6 54.4 0 25.6-3.2 48-12.8 67.2-9.6 22.4-22.4 38.4-38.4 54.4-16 12.8-35.2 22.4-57.6 28.8s-44.8 9.6-73.6 9.6c-35.2 0-67.2-6.4-96-22.4s-54.4-35.2-73.6-57.6l64-54.4c12.8 16 28.8 25.6 44.8 35.2s35.2 12.8 54.4 12.8c25.6 0 44.8-6.4 57.6-19.2s22.4-32 22.4-54.4c0-12.8-3.2-28.8-9.6-41.6s-16-25.6-25.6-38.4c-9.6-12.8-22.4-25.6-35.2-38.4s-22.4-28.8-32-44.8c-9.6-16-16-32-22.4-51.2-6.4-22.4-6.4-35.2-3.2-57.6zM425.6 198.4c0-22.4 6.4-38.4 19.2-54.4 12.8-12.8 32-19.2 51.2-19.2 22.4 0 38.4 6.4 51.2 19.2s22.4 32 22.4 54.4c0 22.4-6.4 38.4-22.4 51.2-12.8 12.8-32 19.2-51.2 19.2s-38.4-6.4-51.2-19.2c-12.8-12.8-19.2-32-19.2-51.2z" />
<glyph unicode="&#xe928;" glyph-name="remove" d="M800 832h-576c-53.024 0-96-42.976-96-96v-32h768v32c0 53.024-42.976 96-96 96zM632.32 896l14.112-100.992h-268.864l14.112 100.992h240.64zM640 960h-256c-26.4 0-50.976-21.376-54.656-47.552l-18.72-133.92c-3.648-26.144 14.944-47.552 41.344-47.552h320c26.4 0 45.024 21.376 41.344 47.552l-18.72 133.92c-3.648 26.144-28.256 47.552-54.656 47.552v0zM816 640h-608c-35.2 0-61.376-28.672-58.208-63.744l52.416-576.512c3.2-35.040 34.592-63.744 69.792-63.744h480c35.2 0 66.592 28.672 69.792 63.744l52.416 576.512c3.2 35.040-23.008 63.744-58.208 63.744zM384 64h-96l-32 448h128v-448zM576 64h-128v448h128v-448zM736 64h-96v448h128l-32-448z" />
<glyph unicode="&#xe929;" glyph-name="search" d="M608 960.32c-229.76 0-416-186.24-416-416 0-98.88 34.688-189.632 92.288-261.056l-274.944-274.944c-17.28-17.28-17.28-45.376 0-62.656s45.376-17.28 62.656 0l274.944 274.944c71.424-57.6 162.176-92.288 261.056-92.288 229.76 0 416 186.24 416 416s-186.24 416-416 416zM608 192.32c-194.112 0-352 157.888-352 352s157.888 352 352 352 352-157.888 352-352-157.888-352-352-352z" />
<glyph unicode="&#xe92a;" glyph-name="secure" d="M844.8-44.8c-9.6-12.8-25.6-19.2-44.8-19.2h-576c-16 0-32 6.4-44.8 19.2s-19.2 28.8-19.2 48v444.8c0 6.4 0 12.8 3.2 19.2 3.2 12.8 9.6 28.8 19.2 38.4 6.4 9.6 16 12.8 25.6 12.8 3.2 0 6.4 0 6.4 0l44.8-12.8h6.4c16-3.2 35.2-6.4 51.2-9.6s35.2-6.4 54.4-9.6v0h3.2c48-6.4 99.2-9.6 147.2-9.6 51.2 0 99.2 3.2 147.2 12.8h3.2c19.2 3.2 38.4 6.4 57.6 9.6 16 3.2 32 6.4 51.2 12.8l6.4 3.2 19.2 6.4c3.2 0 6.4 0 6.4 0 9.6 0 19.2-6.4 25.6-12.8 9.6-9.6 16-22.4 19.2-38.4 0-6.4 3.2-12.8 3.2-19.2v-444.8c3.2-22.4-3.2-38.4-16-51.2zM512 377.6c-41.6 0-76.8-35.2-76.8-80v0c0-28.8 12.8-54.4 38.4-70.4l-32-134.4c0-3.2 0-9.6 3.2-12.8s6.4-6.4 9.6-6.4h118.4c3.2 0 9.6 3.2 9.6 6.4 3.2 3.2 3.2 9.6 3.2 12.8l-32 134.4c22.4 16 38.4 41.6 38.4 70.4-3.2 44.8-38.4 80-80 80zM720 553.6c-16-3.2-32-6.4-51.2-9.6v140.8c0 86.4-67.2 156.8-147.2 156.8s-147.2-70.4-147.2-156.8v-144c-16 3.2-32 6.4-51.2 9.6s-35.2 6.4-54.4 12.8h-6.4v150.4c12.8 137.6 124.8 246.4 256 246.4 144 0 259.2-121.6 259.2-275.2v-118.4l-6.4-3.2c-16-3.2-32-6.4-51.2-9.6z" />
<glyph unicode="&#xe92b;" glyph-name="settings" d="M880.832 554.496c-8.064 28.032-19.008 54.72-32.896 79.744l63.616 133.824c-23.616 29.44-50.368 56.192-79.808 79.808l-133.824-63.616c-24.96 13.824-51.712 24.832-79.744 32.896l-49.792 139.904c-18.496 2.048-37.312 3.264-56.384 3.264s-37.888-1.216-56.384-3.264l-49.792-139.904c-27.968-8.064-54.72-19.072-79.68-32.896l-133.888 63.616c-29.44-23.616-56.192-50.368-79.808-79.808l63.616-133.824c-13.824-24.96-24.832-51.712-32.896-79.744l-139.904-49.792c-2.048-18.496-3.264-37.312-3.264-56.384s1.216-37.888 3.264-56.384l139.968-49.792c8.064-28.032 19.008-54.72 32.896-79.744l-63.616-133.824c23.616-29.44 50.368-56.256 79.808-79.808l133.824 63.616c24.96-13.824 51.712-24.832 79.744-32.896l49.792-139.968c18.432-1.984 37.248-3.2 56.32-3.2s37.888 1.216 56.384 3.264l49.792 139.968c28.032 8.064 54.72 19.008 79.744 32.896l133.824-63.616c29.44 23.616 56.256 50.368 79.808 79.808l-63.616 133.824c13.824 24.96 24.832 51.712 32.896 79.744l139.968 49.792c1.984 18.432 3.2 37.248 3.2 56.32s-1.216 37.888-3.264 56.384l-139.904 49.792zM512 192.32c-141.376 0-256 114.624-256 256s114.624 256 256 256 256-114.624 256-256c0-141.376-114.624-256-256-256zM384 448.32c0-70.688 57.312-128 128-128s128 57.312 128 128c0 70.688-57.312 128-128 128s-128-57.312-128-128z" />
<glyph unicode="&#xe92c;" glyph-name="star-empty" d="M1020.288 546.048c-7.552 23.168-27.584 40.064-51.648 43.584l-275.84 40.064-123.392 249.92c-10.816 21.888-33.024 35.712-57.408 35.712s-46.592-13.824-57.408-35.712l-123.328-249.92-275.84-40.064c-24.128-3.52-44.16-20.416-51.648-43.584-7.552-23.168-1.28-48.576 16.192-65.6l199.616-194.56-47.104-274.752c-4.096-24 5.76-48.256 25.472-62.592 11.072-8.128 24.256-12.224 37.568-12.224 10.176 0 20.416 2.432 29.76 7.36l246.72 129.728 246.72-129.728c9.344-4.928 19.584-7.36 29.76-7.36 13.248 0 26.496 4.096 37.632 12.224 19.712 14.336 29.568 38.592 25.472 62.592l-47.104 274.752 199.616 194.56c17.408 16.96 23.68 42.432 16.192 65.6zM735.68 308.224l52.8-307.904-276.48 145.344-276.48-145.344 52.8 307.904-223.68 218.048 309.12 44.928 138.24 280.128 138.24-280.128 309.12-44.928-223.68-218.048z" />
<glyph unicode="&#xe92d;" glyph-name="star-full" d="M664.192 583.744l-156.8 317.696-156.8-317.696-350.592-50.944 253.696-247.296-59.904-349.184 313.6 164.864 313.6-164.864-59.904 349.184 253.696 247.296z" />
<glyph unicode="&#xe92e;" glyph-name="subtract" d="M463.902 496h-255.934v-96h608.068v96h-352.132z" />
<glyph unicode="&#xe92f;" glyph-name="triangle-down" d="M533.824 330.752c0.32 0.384 0.448 0.896 0.768 1.28l223.424 246.848c12.48 13.888 12.48 36.416 0 50.304-0.128 0.128-0.256 0.192-0.384 0.256-5.76 6.72-13.824 10.88-22.784 10.88h-446.912c-9.152 0-17.28-4.416-23.104-11.264l-0.128 0.128c-12.48-13.888-12.48-36.416 0-50.304l223.936-248.128c12.48-13.888 32.704-13.888 45.184 0z" />
<glyph unicode="&#xe930;" glyph-name="triangle-left" d="M578.56 695.616l-248.128-224c-13.888-12.48-13.888-32.704 0-45.12 0.384-0.32 0.896-0.448 1.28-0.768l246.848-223.424c13.888-12.48 36.416-12.48 50.304 0 0.128 0.128 0.128 0.256 0.256 0.384 6.72 5.76 10.88 13.824 10.88 22.784v446.912c0 9.152-4.416 17.28-11.264 23.040l0.128 0.128c-13.888 12.48-36.416 12.48-50.304 0.064z" />
<glyph unicode="&#xe931;" glyph-name="triangle-right" d="M444.608 201.088l244.864 224.512c13.696 12.48 13.696 32.768 0 45.248-0.384 0.32-0.896 0.448-1.28 0.768l-243.584 224c-13.696 12.48-35.968 12.48-49.664 0-0.064-0.128-0.128-0.32-0.256-0.448-6.528-5.76-10.688-13.824-10.688-22.848v-448c0-9.152 4.352-17.28 11.072-23.104l-0.128-0.128c13.76-12.544 35.968-12.544 49.664 0z" />
<glyph unicode="&#xe932;" glyph-name="triangle-up" d="M287.936 320.32h446.912c9.152 0 17.28 4.416 23.040 11.264l0.128-0.128c12.48 13.888 12.48 36.416 0 50.304l-223.936 248.128c-12.48 13.888-32.704 13.888-45.12 0-0.32-0.384-0.448-0.896-0.768-1.28l-223.488-246.848c-12.48-13.888-12.48-36.416 0-50.304 0.128-0.128 0.256-0.192 0.384-0.32 5.824-6.656 13.824-10.816 22.848-10.816z" />
<glyph unicode="&#xe933;" glyph-name="truck" d="M791.138 416.205h226.361c3.484-0.246 6.253-3.013 6.498-6.476l0.003-0.021v-38.552c-0.246-3.484-3.013-6.253-6.476-6.498l-0.021-0.003h-226.361c-3.484 0.246-6.253 3.013-6.498 6.476l-0.003 0.021v38.552c0.27 3.476 3.026 6.229 6.473 6.498l0.024 0.003zM791.084 519.805h160.599c3.484-0.246 6.253-3.013 6.498-6.476l0.003-0.021v-38.552c-0.246-3.484-3.013-6.253-6.476-6.498l-0.021-0.003h-160.543c-3.484 0.246-6.253 3.013-6.498 6.476l-0.003 0.021v38.552c-0.005 0.085-0.005 0.182-0.005 0.278 0 3.436 2.785 6.224 6.224 6.224 0.079 0 0.158-0.003 0.238-0.005l-0.013 0.001zM791.138 624.391h95.886c3.484-0.246 6.253-3.013 6.498-6.476l0.003-0.021v-38.552c-0.246-3.484-3.013-6.253-6.476-6.498l-0.021-0.003h-95.886c-3.484 0.246-6.253 3.013-6.498 6.476l-0.003 0.021v38.552c0.246 3.484 3.013 6.253 6.476 6.498l0.021 0.003zM9.736 455.035l47.422 143.195c4.666 13.095 16.831 22.351 31.194 22.635l0.037 0.001h146.61v69.173c-0.006 0.166-0.013 0.364-0.013 0.559 0 7.861 6.236 14.262 14.032 14.533l0.025 0.001h463.457c7.818-0.27 14.057-6.674 14.057-14.533 0-0.198-0.005-0.391-0.013-0.588l0.002 0.029v-392.412c-0.15-7.695-6.351-13.893-14.031-14.043h-71.226c0-51.206-41.513-92.718-92.718-92.718s-92.718 41.513-92.718 92.718v0h-184.28c0-51.206-41.513-92.718-92.718-92.718s-92.718 41.513-92.718 92.718v0h-69.945c-8.868 0.182-16.011 7.325-16.192 16.175l-0.001 0.018v92.802c0 0.030 0 0.069 0 0.105 0 22.273 3.549 43.717 10.105 63.804l-0.411-1.451zM548.647 239.469c24.336 0 44.063 19.726 44.063 44.063s-19.726 44.063-44.063 44.063c-24.336 0-44.063-19.726-44.063-44.063v0c0-24.314 19.695-44.031 44.002-44.063h0.005zM177.932 239.469c24.408 0 44.199 19.788 44.199 44.199s-19.788 44.199-44.199 44.199v0c-24.408 0-44.199-19.788-44.199-44.199s19.788-44.199 44.199-44.199v0zM76.65 473.323h144.408c0.15-0.005 0.326-0.013 0.506-0.013 6.875 0 12.448 5.574 12.448 12.448 0 0.179-0.005 0.357-0.013 0.532l0.002-0.026v72.259c0.005 0.15 0.013 0.326 0.013 0.506 0 6.875-5.574 12.448-12.448 12.448-0.179 0-0.357-0.005-0.532-0.013l0.026 0.002h-111.086c-0.005 0-0.010 0-0.013 0-5.799 0-10.772-3.529-12.894-8.555l-0.037-0.093-26.931-80.849c-0.138-0.512-0.214-1.103-0.214-1.709 0-3.741 2.986-6.787 6.706-6.883h0.009z" />
<glyph unicode="&#xe934;" glyph-name="twitter" d="M995.776 848.96c-40.576-24.064-85.568-41.536-133.44-51.008-38.336 40.896-92.928 66.368-153.344 66.368-116.032 0-210.112-94.080-210.112-210.048 0-16.448 1.856-32.512 5.44-47.872-174.592 8.768-329.408 92.416-433.024 219.52-18.112-30.976-28.416-67.072-28.416-105.6 0-72.896 37.12-137.216 93.44-174.848-34.432 1.152-66.816 10.624-95.168 26.368 0-0.896 0-1.728 0-2.624 0-101.76 72.448-186.688 168.512-206.016-17.6-4.8-36.16-7.36-55.36-7.36-13.568 0-26.688 1.344-39.552 3.776 26.752-83.456 104.32-144.192 196.224-145.92-71.872-56.32-162.496-89.92-260.928-89.92-16.96 0-33.664 1.024-50.112 2.944 92.992-59.584 203.392-94.4 322.048-94.4 386.432 0 597.76 320.128 597.76 597.76 0 9.088-0.192 18.176-0.64 27.2 41.152 29.504 76.8 66.496 104.96 108.608-37.696-16.704-78.144-28.032-120.64-33.088 43.392 25.984 76.672 67.2 92.352 116.16z" />
<glyph unicode="&#xe935;" glyph-name="user" d="M748.259 717.349c0-134.006-108.638-242.644-242.644-242.644s-242.644 108.638-242.644 242.644c0 134.006 108.638 242.644 242.644 242.644s242.644-108.638 242.644-242.644zM942.092 104.552c-5.511 162.066-191.041 291.715-424.863 293.534h-10.503c-233.76-1.947-419.294-131.727-424.799-293.534-0.737-6.565-1.153-14.179-1.153-21.896 0-39.099 10.765-75.682 29.488-106.957l-0.529 0.948c33.703-25.377 76.276-40.648 122.412-40.648 10.882 0 21.565 0.851 31.987 2.484l-1.155-0.153h497.991c9.265-1.489 19.949-2.337 30.832-2.337 46.137 0 88.708 15.264 122.937 41.026l-0.525-0.376c18.234 30.339 29.023 66.954 29.023 106.083 0 7.684-0.417 15.268-1.227 22.743l0.084-0.929z" />
<glyph unicode="&#xe936;" glyph-name="vimeo" d="M587.392 654.592c116.992 70.208 179.456-28.544 119.552-140.352-59.776-111.744-114.368-184.576-142.976-184.576-28.544 0-50.496 74.752-83.2 205.44-33.792 135.104-33.6 378.432-174.144 350.848-132.48-26.048-306.624-233.984-306.624-233.984l41.6-54.528c0 0 85.76 67.584 114.368 33.792s137.728-441.984 174.144-517.248c31.808-66.048 119.488-153.344 215.744-91.008 96.128 62.336 415.808 335.296 473.088 657.6 57.152 322.24-384.704 254.72-431.552-25.984z" />
<glyph unicode="&#xe937;" glyph-name="wallet" d="M704 192.32v192c0 35.328 28.672 64 64 64h192v128c0 35.328-28.672 64-64 64h-73.472l-31.232 185.536c-1.408 8.448-6.208 16-13.184 20.864-7.040 4.928-15.808 6.656-24.192 5.312l-631.744-116.224c-8.384-1.536-15.872-6.4-20.672-13.504s-6.592-15.808-4.864-24.256l11.456-57.728h-44.096c-35.328 0-64-28.672-64-64v-576c0-35.328 28.672-64 64-64h832c35.328 0 64 28.672 64 64v128h-192c-35.328 0-64 28.672-64 64zM165.696 678.72l567.872 104.512 24.064-142.912h-584.32l-7.616 38.4zM992 384.32h-224v-192h224c17.664 0 32 14.336 32 32v128c0 17.664-14.336 32-32 32zM864 256.32c-17.664 0-32 14.336-32 32s14.336 32 32 32 32-14.336 32-32c0-17.664-14.336-32-32-32z" />
<glyph unicode="&#xe938;" glyph-name="warning" d="M1012.48 30.464l-444.032 832c-11.072 20.8-32.768 33.856-56.384 33.856h-0.064c-23.616 0-45.248-12.992-56.384-33.792l-446.016-832c-10.624-19.84-10.048-43.776 1.472-63.104 11.584-19.264 32.448-31.104 54.912-31.104h889.984c22.464 0 43.328 11.776 54.912 31.104 11.584 19.264 12.16 43.2 1.6 63.040zM65.984 0.32l446.016 832 444.032-832h-890.048zM448 511.296v-192c0-35.328 28.672-64 64-64s64 28.672 64 64v192c0 35.328-28.672 64-64 64s-64-28.608-64-64zM448 128.32c0-35.36 28.64-64 64-64s64 28.64 64 64c0 35.36-28.64 64-64 64s-64-28.64-64-64z" />
<glyph unicode="&#xe939;" glyph-name="youtube" d="M885.504 798.848c-233.152 15.68-509.568 19.968-747.008 0-73.728-8.256-124.224-97.984-129.728-166.144-11.648-143.168-11.648-224.64 0-367.808 5.568-68.16 54.784-158.4 129.792-167.872 240.256-15.744 515.264-17.92 747.008 0 72.576 12.608 124.224 99.712 129.792 167.872 11.648 143.168 11.648 233.536 0 376.768-5.632 68.16-46.336 154.112-129.856 157.184zM384 267.2v367.040l320-183.552-320-183.488z" />
<glyph unicode="&#xe93a;" glyph-name="zoom-in" d="M608 960.32c-229.76 0-416-186.24-416-416 0-98.88 34.624-189.504 92.224-260.928l-271.168-271.168c-17.344-17.344-17.344-45.504 0-62.848s45.504-17.344 62.848 0l271.168 271.168c71.424-57.6 162.048-92.224 260.928-92.224 229.76 0 416 186.24 416 416s-186.24 416-416 416zM608 192.32c-194.112 0-352 157.888-352 352s157.888 352 352 352 352-157.888 352-352-157.888-352-352-352zM800 576.32h-160v160c0 17.664-14.336 32-32 32s-32-14.336-32-32v-160h-160c-17.664 0-32-14.336-32-32s14.336-32 32-32h160v-160c0-17.664 14.336-32 32-32s32 14.336 32 32v160h160c17.664 0 32 14.336 32 32s-14.336 32-32 32z" />
<glyph unicode="&#xe93b;" glyph-name="zoom-out" d="M608 960.32c-229.76 0-416-186.24-416-416 0-98.88 34.624-189.504 92.224-260.928l-271.168-271.168c-17.344-17.344-17.344-45.504 0-62.848s45.504-17.344 62.848 0l271.168 271.168c71.424-57.6 162.048-92.224 260.928-92.224 229.76 0 416 186.24 416 416s-186.24 416-416 416zM608 192.32c-194.112 0-352 157.888-352 352s157.888 352 352 352 352-157.888 352-352-157.888-352-352-352zM800 576.32h-384c-17.664 0-32-14.336-32-32s14.336-32 32-32h384c17.664 0 32 14.336 32 32s-14.336 32-32 32z" />
<glyph unicode="&#xe93c;" glyph-name="speech-bubble" d="M1029.76 0.64c-9.504 32.384-18.72 64.96-27.936 97.504s-18.496 65.312-28 97.76c-1.664 5.12-2.656 11.008-2.656 17.12 0 8.8 2.016 17.152 5.6 24.608l-0.16-0.352c29.408 62.080 46.56 134.88 46.56 211.712 0 36-3.776 71.136-10.944 105.024l0.576-3.296c-51.84 234.176-256.8 407.040-502.496 408.992h-0.224c-3.968 0.16-8.64 0.256-13.312 0.256-19.616 0-38.88-1.6-57.632-4.64l2.048 0.288c-150.976-22.688-278.368-108.224-356.672-228.64l-1.216-1.984c-52.416-77.12-83.68-172.256-83.68-274.72 0-26.368 2.080-52.256 6.048-77.504l-0.352 2.784c14.304-101.536 58.048-190.944 122.208-261.408l-0.352 0.384c93.44-108.48 231.008-176.768 384.512-176.768 86.688 0 168.288 21.792 239.648 60.16l-2.688-1.312c7.232 4.384 15.968 7.008 25.312 7.008 6.72 0 13.12-1.344 18.944-3.776l-0.32 0.128c31.104-11.264 62.368-22.016 93.568-32.736 26.464-9.088 52.8-18.176 79.264-27.584 5.792-2.176 12.448-3.488 19.424-3.584h0.032c26.368 0.928 47.392 22.496 47.392 49.024 0 5.536-0.928 10.88-2.624 15.872l0.096-0.352zM950.88 407.264c-5.376-53.92-19.424-103.328-40.704-148.64l1.184 2.784c-6.656-14.144-10.528-30.688-10.528-48.16 0-12 1.824-23.584 5.248-34.464l-0.224 0.832c11.264-38.56 22.048-77.088 32.928-115.712l11.456-40.704c0.512-1.696 1.024-3.104 1.632-4.448l-0.096 0.224c0-0.48 0.48-0.992 0.64-1.536l-2.592 1.12c-1.088 0.544-2.464 1.152-3.872 1.664l-0.288 0.096c-44.704 15.264-89.056 30.496-133.472 46.112-11.552 4.448-24.928 7.008-38.88 7.008-19.84 0-38.464-5.184-54.624-14.272l0.544 0.288c-60.256-32.864-132-52.192-208.256-52.192-211.136 0-387.68 148.192-431.264 346.272l-0.544 2.912c-5.664 24.288-8.896 52.192-8.896 80.864 0 2.944 0.032 5.888 0.096 8.832v-0.16c-0.064 2.656-0.096 5.792-0.096 8.96 0 213.344 153.312 390.848 355.776 428.384l2.688 0.416c24.704 4.736 53.088 7.456 82.144 7.456v0c0.256 0 0.576 0 0.896 0 170.4 0 318.24-96.64 391.68-238.112l1.152-2.464c30.56-58.048 48.48-126.816 48.48-199.808 0-15.36-0.8-30.496-2.336-45.44l0.16 1.856zM345.984 447.616c0.032-0.576 0.032-1.28 0.032-1.984 0-36.64-29.696-66.368-66.368-66.368s-66.368 29.696-66.368 66.368c0 0.704 0 1.376 0.032 2.080v-0.096c-0.032 0.576-0.032 1.28-0.032 1.984 0 36.64 29.696 66.368 66.368 66.368s66.368-29.696 66.368-66.368c0-0.704 0-1.376-0.032-2.080v0.096zM582.496 447.616c0-36.64-29.696-66.336-66.336-66.336s-66.336 29.696-66.336 66.336v0c0 36.64 29.696 66.336 66.336 66.336s66.336-29.696 66.336-66.336v0zM813.248 447.616c0-36.64-29.696-66.336-66.336-66.336s-66.336 29.696-66.336 66.336v0c0 36.64 29.696 66.336 66.336 66.336s66.336-29.696 66.336-66.336v0z" />
<glyph unicode="&#xe93d;" glyph-name="circle-subtract" d="M512 960c-282.77 0-512-229.23-512-512s229.23-512 512-512c282.77 0 512 229.23 512 512v0c-0.325 282.639-229.361 511.675-511.969 512h-0.031zM512 7.442c-243.314 0-440.558 197.245-440.558 440.558s197.245 440.558 440.558 440.558c243.314 0 440.558-197.245 440.558-440.558v0c-0.271-243.204-197.353-440.287-440.532-440.558h-0.026zM690.652 472.052h-381.023c-19.728 0-35.721-15.993-35.721-35.721s15.993-35.721 35.721-35.721v0h381.023c19.728 0 35.721 15.993 35.721 35.721s-15.993 35.721-35.721 35.721v0z" />
<glyph unicode="&#xe93e;" glyph-name="chunky-check" horiz-adv-x="1415" d="M1111.017 815.982l-524.826-524.826-286.116 242.812-101.068-118.865 394.033-334.986 622.965 622.765z" />
<glyph unicode="&#xe93f;" glyph-name="filters" d="M724.618 388.102c-32.997 0.128-59.712 26.844-59.841 59.829v0.012c-0.006 0.306-0.009 0.669-0.009 1.030 0 32.485 26.335 58.82 58.82 58.82 0.362 0 0.724-0.003 1.084-0.010l-0.054 0.001c0.306 0.006 0.669 0.009 1.030 0.009 32.485 0 58.82-26.335 58.82-58.82 0-0.362-0.003-0.724-0.010-1.084l0.001 0.054c-0.128-32.997-26.844-59.712-59.829-59.841h-0.012zM987.066 484.868h-135.733c-16.069 55.985-66.621 96.336-126.665 96.765h-0.050c-60.096-1.178-110.554-41.122-127.479-95.801l-0.257-0.964h-559.892c-0.034 0-0.074 0-0.114 0-20.331 0-36.812-16.481-36.812-36.812 0-0.040 0-0.080 0-0.12v0.006c0-0.034 0-0.074 0-0.114 0-20.331 16.481-36.812 36.812-36.812 0.040 0 0.080 0 0.12 0h559.886c16.069-55.985 66.621-96.336 126.665-96.765h0.050c60.093 0.43 110.645 40.781 126.485 95.83l0.231 0.936h135.733c0.034 0 0.074 0 0.114 0 20.331 0 36.812 16.481 36.812 36.812 0 0.040 0 0.080 0 0.12v-0.006c0.023 0.476 0.036 1.032 0.036 1.593 0 19.517-15.821 35.338-35.338 35.338-0.212 0-0.424-0.002-0.635-0.006l0.032 0.001zM382.365 800.235c32.997-0.128 59.712-26.844 59.841-59.829v-0.012c0.006-0.306 0.009-0.669 0.009-1.030 0-32.485-26.335-58.82-58.82-58.82-0.362 0-0.724 0.003-1.084 0.010l0.054-0.001c-32.997 0.128-59.712 26.844-59.841 59.829v0.012c0.832 32.709 27.132 59.009 59.763 59.839l0.078 0.002zM37.048 703.47h218.602c16.069-55.985 66.621-96.336 126.665-96.765h0.050c60.093 0.43 110.645 40.781 126.485 95.83l0.231 0.936h477.931c0.034 0 0.074 0 0.114 0 20.331 0 36.812 16.481 36.812 36.812 0 0.040 0 0.080 0 0.12v-0.006c0.005 0.222 0.007 0.484 0.007 0.744 0 19.986-16.202 36.188-36.188 36.188-0.262 0-0.524-0.002-0.783-0.008l0.039 0.001h-477.931c-16.069 55.985-66.621 96.336-126.665 96.765h-0.050c-60.093-0.43-110.645-40.781-126.485-95.83l-0.231-0.936h-218.602c-0.034 0-0.074 0-0.114 0-20.331 0-36.812-16.481-36.812-36.812 0-0.040 0-0.080 0-0.12v0.006c-0.006-0.239-0.009-0.52-0.009-0.802 0-19.955 16.177-36.131 36.131-36.131 0.262 0 0.524 0.002 0.785 0.008l-0.039-0.001zM322.467 95.763c-32.997 0.128-59.712 26.844-59.841 59.829v0.012c-0.006 0.306-0.009 0.669-0.009 1.030 0 32.485 26.335 58.82 58.82 58.82 0.362 0 0.724-0.003 1.084-0.010l-0.054 0.001c0.306 0.006 0.669 0.009 1.030 0.009 32.485 0 58.82-26.335 58.82-58.82 0-0.362-0.003-0.724-0.010-1.084l0.001 0.054c-0.128-32.997-26.844-59.712-59.829-59.841h-0.012zM987.066 192.529h-537.884c-16.069 55.985-66.621 96.336-126.665 96.765h-0.050c-60.093-0.43-110.645-40.781-126.485-95.83l-0.231-0.936h-158.818c-0.034 0-0.074 0-0.114 0-20.331 0-36.812-16.481-36.812-36.812 0-0.040 0-0.080 0-0.12v0.006c-0.005-0.222-0.007-0.484-0.007-0.744 0-19.986 16.202-36.188 36.188-36.188 0.262 0 0.524 0.002 0.783 0.008l-0.039-0.001h158.818c16.069-55.985 66.621-96.336 126.665-96.765h0.050c60.093 0.43 110.645 40.781 126.485 95.83l0.231 0.936h537.884c0.034 0 0.074 0 0.114 0 20.331 0 36.812 16.481 36.812 36.812 0 0.040 0 0.080 0 0.12v-0.006c0.006 0.239 0.009 0.52 0.009 0.802 0 19.955-16.177 36.131-36.131 36.131-0.262 0-0.524-0.002-0.785-0.008l0.039 0.001z" />
</font>
</defs>
</svg>
